<?xml version="1.0" standalone="no"?>
<!DOCTYPE svg PUBLIC "-//W3C//DTD SVG 1.1//EN" "http://www.w3.org/Graphics/SVG/1.1/DTD/svg11.dtd" >
<svg xmlns="http://www.w3.org/2000/svg">
<metadata></metadata>
<defs>
<font id="GothamMediumRegular" horiz-adv-x="1372" >
<font-face units-per-em="2048" ascent="1638" descent="-410" />
<missing-glyph horiz-adv-x="614" />
<glyph unicode="&#xfb01;" horiz-adv-x="1355" d="M74 868v207h137v78q0 180 87 267t245 87q104 0 200 -28v-209q-80 26 -145 26q-143 0 -143 -163v-60h286v-205h-282v-868h-248v868h-137zM930 1247v236h266v-236h-266zM940 0v1081h248v-1081h-248z" />
<glyph unicode="&#xfb02;" horiz-adv-x="1355" d="M74 868v207h137v78q0 180 87 267t245 87q104 0 200 -28v-209q-80 26 -145 26q-143 0 -143 -163v-60h286v-205h-282v-868h-248v868h-137zM940 0v1495h248v-1495h-248z" />
<glyph horiz-adv-x="0" />
<glyph horiz-adv-x="2048" />
<glyph unicode="&#xd;" horiz-adv-x="614" />
<glyph unicode=" "  horiz-adv-x="614" />
<glyph unicode="&#x09;" horiz-adv-x="614" />
<glyph unicode="&#xa0;" horiz-adv-x="614" />
<glyph unicode="!" horiz-adv-x="618" d="M164 1362v72h291v-72l-76 -909h-137zM174 0v281h272v-281h-272z" />
<glyph unicode="&#x22;" horiz-adv-x="997" d="M123 821l47 613h281v-11l-199 -602h-129zM571 821l50 613h280v-11l-201 -602h-129z" />
<glyph unicode="#" horiz-adv-x="1433" d="M80 330v213h221l59 356h-204v213h241l56 322h219l-56 -322h336l54 322h219l-56 -322h183v-213h-219l-60 -356h205v-213h-242l-57 -330h-219l57 330h-336l-55 -330h-219l57 330h-184zM518 543h336l61 356h-335z" />
<glyph unicode="$" horiz-adv-x="1314" d="M100 207l131 186q180 -147 361 -176v401q-225 57 -331.5 152.5t-106.5 267.5v4q0 166 118 271q116 103 312 121v118h178v-122q207 -26 385 -156l-115 -193q-133 100 -278 131v-389q233 -59 338.5 -158.5t105.5 -263.5v-4q0 -165 -120 -272q-121 -107 -316 -123v-203h-178 v205q-270 32 -484 203zM395 1053q0 -63 39 -107.5t158 -79.5v361q-98 -8 -147.5 -55.5t-49.5 -114.5v-4zM754 209q98 8 150 54t52 120v4q0 68 -42 113t-160 80v-371z" />
<glyph unicode="%" horiz-adv-x="1738" d="M98 1079v4q0 153 94 257q99 110 246 110q149 0 243 -108q93 -106 93 -255v-4q0 -151 -94 -257q-98 -109 -246 -109q-147 0 -242 107q-94 105 -94 255zM244 0l1048 1434h203l-1049 -1434h-202zM281 1083q0 -88 43.5 -148.5t114.5 -60.5t112 60.5t41 144.5v4 q0 86 -44 147.5t-115 61.5t-111.5 -60.5t-40.5 -144.5v-4zM965 346v4q0 153 94 257q99 110 246 110t242 -108q93 -106 93 -255v-4q0 -153 -94 -257q-98 -109 -246 -109t-242 107q-93 106 -93 255zM1147 350q0 -88 44 -148.5t115 -60.5t111.5 60.5t40.5 144.5v4 q0 86 -44 147.5t-115 61.5t-111.5 -60.5t-40.5 -144.5v-4z" />
<glyph unicode="&#x26;" horiz-adv-x="1425" d="M80 389v4q0 269 305 402q-119 152 -119 299v4q0 148 111 252q116 108 301 108q168 0 276 -100q105 -98 105 -246v-4q0 -257 -316 -373l246 -250q84 125 154 277l190 -100q-97 -194 -194 -328l225 -230l-186 -133l-191 195q-199 -186 -440 -186q-206 0 -333 111 q-134 117 -134 298zM334 397q0 -92 67.5 -150.5t156.5 -58.5q155 0 286 125l-320 326q-190 -82 -190 -238v-4zM502 1083q0 -53 24.5 -100t83.5 -113q111 41 168.5 93.5t57.5 130.5v4q0 72 -46.5 117t-121 45t-120.5 -48.5t-46 -124.5v-4z" />
<glyph unicode="'" horiz-adv-x="550" d="M123 821l47 613h285v-11l-201 -602h-131z" />
<glyph unicode="(" horiz-adv-x="901" d="M129 588q0 293 143.5 508t423.5 368l109 -166q-330 -218 -403 -498q-25 -98 -25 -212q0 -229 104.5 -398.5t323.5 -312.5l-109 -166q-281 154 -424 369t-143 508z" />
<glyph unicode=")" horiz-adv-x="901" d="M98 -123q330 218 402 497q26 99 26 214q0 229 -105.5 397t-322.5 313l109 166q567 -313 567 -876t-567 -877z" />
<glyph unicode="*" horiz-adv-x="880" d="M119 1008l233 102l-233 102l74 125l204 -149l-28 250h143l-29 -250l205 149l74 -125l-234 -102l234 -102l-74 -125l-205 149l29 -250h-143l28 250l-204 -149z" />
<glyph unicode="+" horiz-adv-x="1310" d="M145 608v226h394v391h233v-391h393v-226h-393v-391h-233v391h-394z" />
<glyph unicode="," horiz-adv-x="550" d="M70 -193q188 37 174 193h-105v281h273v-238q0 -172 -80 -250t-236 -90z" />
<glyph unicode="-" horiz-adv-x="835" d="M115 506v244h606v-244h-606z" />
<glyph unicode="." horiz-adv-x="550" d="M139 0v281h273v-281h-273z" />
<glyph unicode="/" horiz-adv-x="1067" d="M-51 -262l925 1896h216l-926 -1896h-215z" />
<glyph unicode="0" horiz-adv-x="1482" d="M117 713v4q0 314 172 524q82 100 197.5 158.5t256.5 58.5t256 -57.5t196 -157.5q171 -211 171 -522v-4q0 -314 -172 -525q-82 -100 -198 -158.5t-257 -58.5q-276 0 -452 215q-170 209 -170 523zM377 717q0 -219 99 -363q105 -151 267 -151q163 0 265 149q98 142 98 361v4 q0 215 -100 363q-104 151 -267 151q-162 0 -264 -149q-98 -142 -98 -361v-4z" />
<glyph unicode="1" horiz-adv-x="811" d="M53 1321l385 123h176v-1444h-249v1188l-259 -72z" />
<glyph unicode="2" horiz-adv-x="1255" d="M100 0v199l494 419q216 178 254 295q14 43 14 93q0 106 -66.5 164.5t-164.5 58.5t-173 -53.5t-159 -161.5l-178 139q109 154 220 222q129 79 308 79q212 0 341 -118q132 -118 132 -310v-4q0 -159 -91 -284q-46 -64 -116.5 -128.5t-164.5 -142.5l-295 -246h682v-221h-1037 z" />
<glyph unicode="3" horiz-adv-x="1265" d="M88 227l176 164q78 -92 167 -140t202.5 -48t184.5 59.5t71 157.5v4q0 106 -89 163.5t-241 57.5h-117l-41 158l387 411h-620v220h948v-189l-399 -409q288 -35 386 -232q36 -72 36 -172v-4q0 -199 -139 -326q-141 -127 -363 -127q-338 0 -549 252z" />
<glyph unicode="4" horiz-adv-x="1394" d="M74 502l796 942h215v-916h205v-206h-205v-322h-241v322h-723zM373 528h471v568z" />
<glyph unicode="5" horiz-adv-x="1273" d="M96 195l156 182q185 -172 369 -172q129 0 206.5 67.5t77.5 180.5v4q0 111 -83 174t-214 63t-264 -63l-151 100l40 703h857v-224h-639l-23 -336q116 41 223.5 41t199 -27.5t157.5 -83.5q145 -122 145 -339v-4q0 -220 -145 -353q-147 -133 -385 -133q-298 0 -527 220z" />
<glyph unicode="6" horiz-adv-x="1343" d="M117 674v4q0 340 155 554q164 226 459 226q139 0 241.5 -42t196.5 -118l-135 -194q-76 59 -146.5 92t-157.5 33t-149.5 -34t-105.5 -95q-88 -126 -96 -326q78 73 128 96q104 48 211 48t198.5 -30t159.5 -88q147 -126 147 -333v-4q0 -214 -154 -351q-152 -137 -389 -137 q-308 0 -462 241q-101 158 -101 458zM387 451q0 -110 81 -185q79 -73 216 -73q135 0 211 74t76 186v4q0 109 -79 179.5t-214 70.5q-128 0 -212 -75q-79 -71 -79 -177v-4z" />
<glyph unicode="7" horiz-adv-x="1247" d="M139 1212v222h1008v-191l-647 -1243h-283l643 1212h-721z" />
<glyph unicode="8" horiz-adv-x="1290" d="M98 389v4q0 243 258 350q-209 107 -209 320v4q0 162 141 275q140 112 357 112q216 0 357 -110q141 -112 141 -277v-4q0 -121 -58.5 -196.5t-150.5 -123.5q117 -53 187.5 -134t70.5 -210v-4q0 -190 -156 -304q-151 -111 -391 -111q-235 0 -391 112t-156 297zM344 406 q0 -88 80 -152t221 -64t221 62.5t80 153.5v4q0 96 -87 158q-84 59 -214 59t-214 -59q-87 -62 -87 -158v-4zM389 1040q0 -94 72.5 -153.5t183.5 -59.5t183.5 59.5t72.5 151.5v4q0 84 -69.5 142.5t-186.5 58.5t-186.5 -58.5t-69.5 -140.5v-4z" />
<glyph unicode="9" horiz-adv-x="1343" d="M121 958v5q0 212 149 353q151 142 385 142q135 0 228.5 -38t171.5 -116q172 -170 172 -544v-4q0 -352 -163 -564q-168 -217 -452 -217q-150 0 -258 48.5t-200 123.5l137 193q82 -70 158.5 -102.5t162.5 -32.5t148.5 32.5t106.5 92.5q90 124 98 325q-121 -151 -336 -151 q-231 0 -367 122q-141 126 -141 332zM373 971q0 -113 79 -184.5t212.5 -71.5t212.5 73.5t79 184.5v4q0 113 -80.5 188.5t-218.5 75.5q-132 0 -209 -78q-75 -77 -75 -188v-4z" />
<glyph unicode=":" horiz-adv-x="571" d="M150 0v281h272v-281h-272zM150 801v280h272v-280h-272z" />
<glyph unicode=";" horiz-adv-x="571" d="M80 -193q188 37 174 193h-104v281h272v-238q0 -172 -80 -250t-236 -90zM150 801v280h272v-280h-272z" />
<glyph unicode="&#x3c;" horiz-adv-x="1310" d="M143 610v221l977 453v-235l-731 -326l731 -328v-237z" />
<glyph unicode="=" horiz-adv-x="1310" d="M176 350v230h959v-230h-959zM176 862v230h959v-230h-959z" />
<glyph unicode="&#x3e;" horiz-adv-x="1310" d="M190 158v235l732 326l-732 328v237l977 -453v-221z" />
<glyph unicode="?" horiz-adv-x="1107" d="M49 1225q90 102 209 164.5t255 62.5t225 -28.5t152 -83.5q132 -115 132 -304v-4q0 -180 -121 -288q-103 -93 -291 -126l-20 -165h-166l-41 331l10 11q379 15 379 229v4q0 86 -62.5 140.5t-172.5 54.5q-182 0 -334 -162zM365 0v281h274v-281h-274z" />
<glyph unicode="@" horiz-adv-x="2007" d="M109 561q0 184 69.5 347t190 285t284.5 193.5t353 71.5q188 0 351 -67.5t283.5 -179t189 -258t68.5 -291t-32.5 -240.5t-87.5 -158q-110 -127 -277 -127q-121 0 -194.5 43t-108.5 101q-139 -144 -317 -144q-153 0 -263 106q-108 105 -108 281q0 212 144 364 q139 148 324 148t286 -151l24 123l199 -31l-90 -516q-4 -29 -7.5 -51.5t-3.5 -36.5q0 -66 42 -106t107.5 -40t115 27t86.5 79q80 112 80 314q0 141 -61.5 273.5t-170 234.5t-257 163.5t-323.5 61.5t-324 -64.5t-258.5 -176t-171 -261t-61.5 -318.5t61.5 -317.5t172.5 -259 t263.5 -174t319.5 -63.5t285.5 35t235.5 102l37 -61q-255 -154 -543 -154q-197 0 -363.5 71t-289.5 192.5t-191.5 283.5t-68.5 346zM719 552q0 -121 60.5 -179t164.5 -58t189.5 97.5t85.5 211t-61.5 175t-153.5 61.5q-116 0 -199 -92q-86 -95 -86 -216z" />
<glyph unicode="A" horiz-adv-x="1617" d="M61 0l631 1444h234l630 -1444h-266l-145 346h-678l-148 -346h-258zM559 569h494l-248 574z" />
<glyph unicode="B" horiz-adv-x="1478" d="M184 0v1434h643q248 0 375 -127q96 -96 96 -238v-4q0 -174 -128 -271q-37 -28 -76 -49q141 -51 206 -122q78 -86 78 -226v-4q0 -190 -145 -293q-142 -100 -385 -100h-664zM432 223h418q129 0 202.5 49.5t73.5 147.5v4q0 192 -295 192h-399v-393zM432 829h344 q123 0 197 48.5t74 146.5v4q0 86 -64.5 134t-187.5 48h-363v-381z" />
<glyph unicode="C" horiz-adv-x="1511" d="M121 713v4q0 311 207 523q212 218 532 218q266 0 452 -133q58 -41 109 -90l-161 -186q-86 80 -182.5 129t-209 49t-199.5 -40t-151 -109q-133 -144 -133 -357v-4q0 -214 133 -361q137 -149 340 -149q131 0 225.5 50t186.5 136l162 -164q-177 -190 -399 -237 q-83 -17 -212 -17t-262 57.5t-230.5 157t-152.5 234.5t-55 289z" />
<glyph unicode="D" horiz-adv-x="1601" d="M184 0v1434h535q333 0 549 -205q213 -201 213 -508v-4q0 -309 -213 -510q-218 -207 -549 -207h-535zM436 229h283q225 0 361.5 136.5t136.5 347.5v4q0 212 -137 349q-138 138 -361 138h-283v-975z" />
<glyph unicode="E" d="M184 0v1434h1063v-226h-811v-372h719v-226h-719v-385h821v-225h-1073z" />
<glyph unicode="F" horiz-adv-x="1343" d="M184 0v1434h1067v-230h-815v-391h723v-229h-723v-584h-252z" />
<glyph unicode="G" horiz-adv-x="1605" d="M121 713v4q0 150 54 285t152.5 236t234.5 160.5t298 59.5q324 0 551 -194l-160 -191q-90 76 -155 104q-121 50 -232.5 50t-196.5 -41t-147 -110q-135 -147 -135 -355v-4q0 -226 135 -367q139 -145 346.5 -145t352.5 108v269h-367v219h610v-602q-264 -224 -598 -224 q-331 0 -540 213q-203 207 -203 525z" />
<glyph unicode="H" horiz-adv-x="1556" d="M184 0v1434h252v-596h684v596h252v-1434h-252v604h-684v-604h-252z" />
<glyph unicode="I" horiz-adv-x="649" d="M199 0v1434h252v-1434h-252z" />
<glyph unicode="J" horiz-adv-x="1144" d="M43 211l166 170q63 -80 130 -124t164 -44t159.5 68.5t62.5 212.5v940h258v-947q0 -246 -133 -381q-63 -63 -151 -94.5t-225.5 -31.5t-248 66.5t-182.5 164.5z" />
<glyph unicode="K" horiz-adv-x="1484" d="M184 0v1434h252v-721l682 721h309l-596 -617l623 -817h-305l-490 645l-223 -229v-416h-252z" />
<glyph unicode="L" horiz-adv-x="1267" d="M184 0v1434h252v-1205h754v-229h-1006z" />
<glyph unicode="M" horiz-adv-x="1777" d="M184 0v1434h269l436 -678l436 678h268v-1434h-252v1028l-452 -676h-8l-449 672v-1024h-248z" />
<glyph unicode="N" horiz-adv-x="1617" d="M184 0v1434h234l768 -992v992h248v-1434h-211l-791 1020v-1020h-248z" />
<glyph unicode="O" horiz-adv-x="1740" d="M121 713v4q0 309 211 521q100 101 237.5 160.5t302.5 59.5q166 0 303.5 -58.5t235.5 -158.5t153.5 -234.5t55.5 -285.5v-4q0 -307 -211 -521q-100 -102 -237.5 -161.5t-303.5 -59.5t-303 58.5t-235.5 159t-153.5 234.5t-55 286zM385 717q0 -215 137 -359 q141 -151 350 -151q211 0 348 149q136 146 136 357v4q0 215 -136 359q-142 151 -352 151t-348 -149q-135 -146 -135 -357v-4z" />
<glyph unicode="P" horiz-adv-x="1368" d="M184 0v1434h566q251 0 398 -132q146 -130 146 -348v-4q0 -232 -168 -364q-156 -125 -405 -125h-285v-461h-252zM436 688h293q143 0 226 71.5t83 184.5v4q0 127 -84 191.5t-225 64.5h-293v-516z" />
<glyph unicode="Q" horiz-adv-x="1740" d="M121 713v4q0 309 211 521q100 101 237.5 160.5t302.5 59.5q166 0 303.5 -58.5t235.5 -158.5t153.5 -234.5t55.5 -285.5v-4q0 -247 -145 -441l163 -139l-161 -180l-172 154q-190 -136 -437 -136q-166 0 -303 58.5t-235.5 159t-153.5 234.5t-55 286zM385 717 q0 -215 137 -359q64 -69 154 -110t179 -41q153 0 263 69l-246 209l162 185l248 -226q74 113 74 269v4q0 215 -136 359q-142 151 -352 151t-348 -149q-135 -146 -135 -357v-4z" />
<glyph unicode="R" horiz-adv-x="1480" d="M184 0v1434h639q266 0 414 -144q119 -123 119 -309v-4q0 -251 -204 -376q-62 -38 -138 -58l387 -543h-297l-352 500h-316v-500h-252zM436 723h369q135 0 215 64.5t80 175.5v4q0 117 -78 177t-219 60h-367v-481z" />
<glyph unicode="S" horiz-adv-x="1310" d="M88 209l152 180q104 -90 210.5 -138t232.5 -48t194.5 49t68.5 131v4q0 79 -62 125q-69 52 -222.5 86.5t-242.5 68t-149 81.5q-125 100 -125 286v4q0 183 139 300q136 116 351 116q293 0 520 -180l-135 -191q-201 148 -389 148q-111 0 -172.5 -49t-61.5 -121v-4 q0 -86 67 -131t226.5 -84.5t246.5 -74t145 -84.5q116 -101 116 -271v-4q0 -199 -144 -316q-137 -112 -368 -112q-346 0 -598 229z" />
<glyph unicode="T" horiz-adv-x="1327" d="M82 1200v234h1163v-234h-454v-1200h-254v1200h-455z" />
<glyph unicode="U" horiz-adv-x="1550" d="M162 608v826h252v-816q0 -201 96 -305t265 -104t265.5 100.5t96.5 298.5v826h252v-813q0 -311 -169 -483q-158 -161 -447 -161q-140 0 -252.5 40t-192.5 120q-166 166 -166 471z" />
<glyph unicode="V" horiz-adv-x="1536" d="M61 1434h279l432 -1102l430 1102h273l-596 -1444h-222z" />
<glyph unicode="W" horiz-adv-x="2285" d="M74 1434h272l342 -1063l352 1067h213l353 -1067l342 1063h264l-500 -1444h-217l-352 1030l-352 -1030h-218z" />
<glyph unicode="X" horiz-adv-x="1492" d="M76 0l522 729l-502 705h297l357 -514l358 514h289l-500 -701l520 -733h-297l-377 543l-378 -543h-289z" />
<glyph unicode="Y" horiz-adv-x="1466" d="M37 1434h297l401 -635l406 635h289l-570 -863v-571h-254v565z" />
<glyph unicode="Z" horiz-adv-x="1437" d="M133 0v186l846 1024h-819v224h1147v-187l-846 -1024h846v-223h-1174z" />
<glyph unicode="[" horiz-adv-x="929" d="M180 -266v1700h629v-195h-393v-1311h393v-194h-629z" />
<glyph unicode="\" horiz-adv-x="1067" d="M-23 1634h216l925 -1896h-215z" />
<glyph unicode="]" horiz-adv-x="929" d="M121 -72h393v1311h-393v195h631v-1700h-631v194z" />
<glyph unicode="^" horiz-adv-x="1024" d="M115 1010l309 426h176l309 -426h-190l-209 270l-209 -270h-186z" />
<glyph unicode="_" horiz-adv-x="1228" d="M-4 -135h1237v-193h-1237v193z" />
<glyph unicode="`" horiz-adv-x="1024" d="M254 1454l225 100l217 -335h-192z" />
<glyph unicode="a" horiz-adv-x="1202" d="M82 311v4q0 175 124 268q115 87 293 87t320 -45v20q0 232 -276 232q-139 0 -299 -68l-68 199q90 41 184.5 65.5t227.5 24.5q242 0 358.5 -120t116.5 -337v-641h-246v133q-130 -156 -350 -156q-163 0 -269 85q-116 92 -116 249zM328 324q0 -78 60.5 -119t135 -41 t126.5 16.5t91 45.5q82 63 82 165v62q-112 43 -238.5 43t-191.5 -45t-65 -123v-4z" />
<glyph unicode="b" d="M156 0v1495h247v-594q139 203 367 203q204 0 348 -146q156 -158 156 -415v-4q0 -258 -154 -416q-143 -146 -350 -146q-133 0 -221 57.5t-146 133.5v-168h-247zM397 539q0 -153 95 -252q90 -94 221 -94q129 0 218 93q91 95 91 253v4q0 155 -91 252q-88 94 -218 94 q-132 0 -221 -95q-95 -102 -95 -251v-4z" />
<glyph unicode="c" horiz-adv-x="1169" d="M96 535v4q0 235 159 398q163 167 402 167q154 0 255.5 -51.5t177.5 -134.5l-154 -166q-57 59 -121.5 97t-146 38t-138.5 -28t-98 -74q-88 -99 -88 -242v-4q0 -148 90 -246q94 -103 234 -103q88 0 154.5 38t125.5 98l150 -148q-180 -203 -424 -203q-257 0 -419 164 q-159 161 -159 396z" />
<glyph unicode="d" d="M100 539v4q0 258 154 415q142 146 348 146q133 0 221 -57.5t148 -133.5v582h248v-1495h-248v180q-143 -203 -369 -203q-204 0 -346 146q-156 160 -156 416zM350 539q0 -156 92 -252q90 -94 219 -94q62 0 119.5 24.5t100.5 70.5q94 101 94 251v4q0 154 -94 252 q-90 94 -219 94q-132 0 -220 -92q-92 -96 -92 -254v-4z" />
<glyph unicode="e" horiz-adv-x="1236" d="M96 537v4q0 236 148 398q152 165 381 165q247 0 387 -174q131 -162 131 -408q0 -33 -4 -69h-795q20 -133 105.5 -204t191.5 -71t174 33t133 96l146 -129q-172 -203 -443 -203q-236 0 -394 156q-161 159 -161 406zM342 616h555q-20 194 -165 262q-48 23 -109 23 q-115 0 -190 -79t-91 -206z" />
<glyph unicode="f" horiz-adv-x="770" d="M74 868v207h137v78q0 180 87 267t245 87q104 0 200 -28v-209q-80 26 -145 26q-143 0 -143 -163v-60h286v-205h-282v-868h-248v868h-137z" />
<glyph unicode="g" d="M100 592v4q0 232 150 374q143 134 342 134q137 0 226 -54.5t153 -129.5v161h248v-860q0 -553 -582 -553q-270 0 -483 129l92 187q187 -115 369 -115q358 0 358 332v84q-68 -88 -158 -143.5t-204.5 -55.5t-203 35t-157.5 99q-150 142 -150 372zM350 594q0 -128 90 -216 q85 -83 217 -83q135 0 224 83q94 87 94 214v4q0 129 -94 216q-89 83 -224 83q-130 0 -218 -82q-89 -83 -89 -215v-4z" />
<glyph unicode="h" horiz-adv-x="1269" d="M156 0v1495h247v-582q132 191 327 191t295.5 -112.5t100.5 -303.5v-688h-247v614q0 127 -60.5 196t-170.5 69t-177.5 -71t-67.5 -198v-610h-247z" />
<glyph unicode="i" horiz-adv-x="585" d="M160 1247v236h266v-236h-266zM170 0v1081h248v-1081h-248z" />
<glyph unicode="j" horiz-adv-x="585" d="M-16 -125q37 -6 69 -6q117 0 117 131v1081h248v-1095q0 -320 -316 -320q-48 0 -118 10v199zM160 1247v236h266v-236h-266z" />
<glyph unicode="k" horiz-adv-x="1191" d="M156 0v1495h247v-893l449 479h301l-430 -440l444 -641h-286l-326 467l-152 -158v-309h-247z" />
<glyph unicode="l" horiz-adv-x="585" d="M170 0v1495h248v-1495h-248z" />
<glyph unicode="m" horiz-adv-x="1945" d="M156 0v1081h247v-163q60 83 114 119q100 67 216.5 67t197.5 -52.5t124 -138.5q147 191 366 191q178 0 278.5 -107.5t100.5 -306.5v-690h-248v614q0 129 -57 197t-160.5 68t-168 -69t-64.5 -200v-610h-248v616q0 127 -57.5 195t-161.5 68t-168 -72t-64 -199v-608h-247z " />
<glyph unicode="n" horiz-adv-x="1269" d="M156 0v1081h247v-168q132 191 327 191t295.5 -112.5t100.5 -303.5v-688h-247v614q0 127 -60.5 196t-170.5 69t-177.5 -71t-67.5 -198v-610h-247z" />
<glyph unicode="o" horiz-adv-x="1345" d="M96 535v4q0 233 165 398q167 167 413 167q249 0 412 -165q163 -164 163 -396v-4q0 -232 -165 -397q-76 -76 -182.5 -121.5t-230.5 -45.5t-229.5 44t-182.5 120q-163 161 -163 396zM344 539q0 -144 93 -245q95 -104 239 -104q74 0 134 28t103 75q88 96 88 242v4 q0 146 -93 245q-96 103 -238 103q-143 0 -238 -102q-88 -94 -88 -242v-4z" />
<glyph unicode="p" d="M156 -328v1409h247v-180q139 203 367 203q204 0 348 -146q156 -158 156 -415v-4q0 -258 -154 -416q-143 -146 -350 -146q-133 0 -221 57.5t-146 133.5v-496h-247zM397 539q0 -153 95 -252q90 -94 221 -94q129 0 218 93q91 95 91 253v4q0 155 -91 252q-88 94 -218 94 q-132 0 -221 -95q-95 -102 -95 -251v-4z" />
<glyph unicode="q" d="M100 539v4q0 258 154 415q142 146 348 146q133 0 221 -57.5t148 -133.5v168h248v-1409h-248v508q-143 -203 -369 -203q-204 0 -346 146q-156 160 -156 416zM350 539q0 -156 92 -252q90 -94 219 -94q62 0 119.5 24.5t100.5 70.5q94 101 94 251v4q0 154 -94 252 q-90 94 -219 94q-132 0 -220 -92q-92 -96 -92 -254v-4z" />
<glyph unicode="r" horiz-adv-x="845" d="M156 0v1081h247v-243q51 122 145 196q87 68 217 68h21v-262h-14q-167 0 -266 -107q-103 -111 -103 -321v-412h-247z" />
<glyph unicode="s" horiz-adv-x="1024" d="M68 141l110 168q177 -133 354 -133q80 0 124 32t44 85v4q0 58 -72 93q-34 16 -78 30t-97 29.5t-113.5 38t-109.5 58.5q-109 81 -109 220v4q0 151 111 242q108 88 274 88q211 0 397 -123l-98 -176q-169 102 -305 102q-72 0 -112 -30.5t-40 -77.5v-4q0 -69 153 -123 q44 -15 97 -31t112.5 -41t107.5 -60q110 -82 110 -212v-5q0 -165 -116 -255q-110 -84 -286 -84q-253 0 -458 161z" />
<glyph unicode="t" horiz-adv-x="839" d="M70 868v213h137v297h248v-297h290v-213h-290v-530q0 -135 133 -135q80 0 153 37v-203q-96 -55 -223 -55q-311 0 -311 317v569h-137z" />
<glyph unicode="u" horiz-adv-x="1269" d="M143 393v688h248v-614q0 -127 60.5 -195.5t170.5 -68.5t177 70.5t67 197.5v610h248v-1081h-248v168q-53 -78 -133 -134.5t-205 -56.5q-184 0 -284.5 113t-100.5 303z" />
<glyph unicode="v" horiz-adv-x="1218" d="M53 1081h266l291 -794l293 794h260l-442 -1089h-223z" />
<glyph unicode="w" horiz-adv-x="1763" d="M66 1081h253l218 -741l239 745h211l242 -745l221 741h248l-355 -1089h-221l-241 739l-244 -739h-221z" />
<glyph unicode="x" horiz-adv-x="1187" d="M61 0l398 549l-383 532h270l250 -356l250 356h264l-383 -526l399 -555h-270l-266 379l-264 -379h-265z" />
<glyph unicode="y" horiz-adv-x="1220" d="M53 1081h264l308 -802l280 802h258l-430 -1112q-66 -168 -145 -234q-82 -69 -211 -69q-135 0 -256 66l84 184q80 -41 139 -41t94 26.5t66 98.5z" />
<glyph unicode="z" horiz-adv-x="1146" d="M106 0v170l625 709h-602v202h918v-170l-625 -708h625v-203h-941z" />
<glyph unicode="{" horiz-adv-x="997" d="M106 494v188h54q129 0 180 52t51 173l-4 148q0 167 93 258q107 105 372 151l43 -164q-177 -48 -231 -109q-48 -53 -48 -171l5 -152q0 -121 -55.5 -184t-157.5 -96q104 -35 158.5 -97.5t54.5 -183.5l-5 -151q0 -119 48 -172q55 -61 231 -109l-43 -164q-382 69 -444 265 q-21 65 -21 145l4 147q0 121 -51 173.5t-180 52.5h-54z" />
<glyph unicode="|" horiz-adv-x="677" d="M240 -262v1896h198v-1896h-198z" />
<glyph unicode="}" horiz-adv-x="997" d="M102 -125q176 48 232 109q47 53 47 172l-4 151q0 121 55 184.5t158 96.5q-104 35 -158.5 97.5t-54.5 182.5l4 152q0 118 -47 171q-57 64 -232 109l43 164q267 -48 372 -151q93 -91 93 -258l-4 -148q0 -121 51.5 -173t180.5 -52h53v-188h-53q-129 0 -180.5 -52.5 t-51.5 -173.5l4 -147q0 -170 -93 -259q-108 -104 -372 -151z" />
<glyph unicode="~" horiz-adv-x="1013" d="M121 512q35 123 85 188.5t144 65.5q58 0 128.5 -28.5t104 -41t69.5 -12.5t58.5 24.5t45.5 77.5l137 -41q-35 -125 -85 -190.5t-144 -65.5q-65 0 -132 28t-101 41t-69.5 13t-58 -24.5t-45.5 -77.5z" />
<glyph unicode="&#xa1;" horiz-adv-x="618" d="M164 0v72l78 909h137l76 -909v-72h-291zM174 1153v281h272v-281h-272z" />
<glyph unicode="&#xa2;" horiz-adv-x="1189" d="M106 723v4q0 236 159 399q161 164 401 164h18l31 156h180l-37 -182q131 -40 242 -160l-150 -160q-74 74 -141 103l-133 -668q148 3 282 133l144 -141q-80 -90 -186.5 -148.5t-258.5 -58.5h-12l-35 -176h-180l41 209q-253 92 -338 353q-27 83 -27 173zM348 727 q0 -104 46 -187t128 -126l129 661q-129 -4 -217 -103q-86 -96 -86 -241v-4z" />
<glyph unicode="&#xa3;" horiz-adv-x="1318" d="M129 0v160l162 49v360h-162v213h162v189q0 231 127 356q123 127 344 127q232 0 373 -138q43 -42 79 -91l-192 -154q-55 72 -113.5 111t-124.5 39q-112 0 -170 -58q-69 -73 -69 -198v-183h510v-213h-510v-350h665v-219h-1081z" />
<glyph unicode="&#xa4;" horiz-adv-x="1474" d="M106 461v174h158q-2 20 -2 39v89q0 23 4 46h-160v174h193q98 330 380 439q93 36 194.5 36t176 -20.5t134.5 -55.5q100 -60 196 -194l-190 -141q-66 90 -137.5 138t-180.5 48t-189.5 -66.5t-123.5 -183.5h440v-174h-479q-4 -40 -4 -88v-4q0 -42 4 -82h479v-174h-442 q41 -121 127 -190.5t207 -69.5q137 0 243 111q35 36 70 83l180 -131q-197 -289 -495 -289q-225 0 -383 135q-154 130 -213 351h-187z" />
<glyph unicode="&#xa5;" horiz-adv-x="1404" d="M39 1434h293l375 -600l374 600h285l-475 -711h328v-182h-396v-150h396v-182h-396v-209h-241v209h-396v182h396v150h-396v182h326z" />
<glyph unicode="&#xa7;" horiz-adv-x="1294" d="M119 715v4q0 100 62.5 156.5t156.5 80.5q-113 72 -113 195v4q0 137 106.5 218t276.5 81q311 0 492 -194l-142 -140q-159 146 -329 146q-82 0 -124 -28t-42 -73v-4q0 -45 52 -73q68 -38 202.5 -67.5t218.5 -59t137 -64.5q103 -68 103 -178v-4q0 -98 -62.5 -155.5 t-157.5 -82.5q113 -70 113 -194v-4q0 -135 -105.5 -217t-276.5 -82q-311 0 -492 194l141 139q158 -145 330 -145q86 0 125.5 28.5t39.5 71.5v4q0 47 -55 76q-56 30 -195 62.5t-223 62t-137 63.5q-102 67 -102 179zM342 750q0 -45 54.5 -78t192 -68t207 -35t113 32t43.5 79v4 q0 45 -54 78t-158 59q-173 43 -241.5 43t-112.5 -31.5t-44 -78.5v-4z" />
<glyph unicode="&#xa8;" horiz-adv-x="1024" d="M182 1219v241h252v-241h-252zM590 1219v241h252v-241h-252z" />
<glyph unicode="&#xa9;" horiz-adv-x="1699" d="M109 713v4q0 152 57 286t157.5 235t236.5 160.5t292 59.5t291 -58.5t234.5 -158.5t156.5 -234.5t57 -285.5v-4q0 -152 -57 -286t-157.5 -235.5t-236.5 -161t-292 -59.5t-291 58.5t-234.5 159t-156.5 234.5t-57 286zM186 713q0 -137 50.5 -258t139.5 -211t210 -142.5 t262 -52.5t263 53.5t211 143.5t140 212t51 259v4q0 137 -50 258t-139 211q-192 194 -472 194q-141 0 -263 -53t-211 -143t-140.5 -212t-51.5 -259v-4zM465 723v4q0 165 111 283q113 118 286 118q111 0 180.5 -33.5t124.5 -86.5l-96 -111q-101 92 -209 92q-104 0 -173 -77 q-68 -75 -68 -183v-4q0 -107 68 -183q68 -77 173 -77q70 0 118 25.5t95 70.5l99 -96q-61 -66 -133 -102.5t-169.5 -36.5t-170 30.5t-125.5 85.5q-111 115 -111 281z" />
<glyph unicode="&#xaa;" horiz-adv-x="798" d="M109 578v118h553v-118h-553zM115 1010v4q0 96 68.5 143t162 47t170.5 -22v10q0 125 -143 125q-65 0 -170 -39l-39 111q108 51 234 51t192 -68q63 -59 63 -182v-352h-139v69q-73 -82 -188 -82q-87 0 -148 47q-63 51 -63 138zM256 1016q0 -41 29.5 -63.5t86 -22.5 t100.5 34.5t44 88.5v37q-59 22 -124.5 22t-100.5 -24.5t-35 -67.5v-4z" />
<glyph unicode="&#xab;" horiz-adv-x="1241" d="M90 532v17l340 450l188 -96l-270 -360l270 -363l-188 -96zM606 532v17l338 450l189 -96l-271 -360l271 -363l-189 -96z" />
<glyph unicode="&#xad;" horiz-adv-x="835" d="M115 506v244h606v-244h-606z" />
<glyph unicode="&#xae;" horiz-adv-x="1699" d="M109 713v4q0 152 57 286t157.5 235t236.5 160.5t292 59.5t291 -58.5t234.5 -158.5t156.5 -234.5t57 -285.5v-4q0 -152 -57 -286t-157.5 -235.5t-236.5 -161t-292 -59.5t-291 58.5t-234.5 159t-156.5 234.5t-57 286zM186 713q0 -137 50.5 -258t139.5 -211t210 -142.5 t262 -52.5t263 53.5t211 143.5t140 212t51 259v4q0 137 -50 258t-139 211q-192 194 -472 194q-141 0 -263 -53t-211 -143t-140.5 -212t-51.5 -259v-4zM551 350v776h346q152 0 236 -84q63 -59 63 -161v-4q0 -94 -50 -152.5t-130 -81.5l209 -293h-176l-189 268h-162v-268h-147 zM698 748h193q72 0 112.5 32.5t40.5 87.5v4q0 59 -40.5 90t-112.5 31h-193v-245z" />
<glyph unicode="&#xaf;" horiz-adv-x="1024" d="M162 1229v182h700v-182h-700z" />
<glyph unicode="&#xb0;" horiz-adv-x="964" d="M141 1112v4q0 133 103 232q102 98 237 98q134 0 239 -98q103 -97 103 -232v-4q0 -133 -103 -232q-104 -100 -239 -100t-237 100q-103 101 -103 232zM289 1112q0 -127 115 -180q36 -17 78 -17t77 16.5t61 42.5q56 56 56 138v4q0 82 -56 138q-57 57 -139 57t-138 -57 q-54 -56 -54 -138v-4z" />
<glyph unicode="&#xb1;" horiz-adv-x="1249" d="M80 225l174 162q163 -184 387 -184q119 0 187.5 56t68.5 151v4q0 98 -83 150t-232 52h-154v213h160q125 0 197.5 56.5t72.5 148.5v4q0 86 -65.5 139.5t-176 53.5t-185.5 -48t-146 -132l-176 143q150 196 343 246q72 18 172.5 18t191.5 -28.5t156 -79.5q136 -109 136 -275 v-4q0 -232 -213 -336q252 -95 252 -323v-4q0 -187 -135 -308q-140 -125 -375 -125q-176 0 -317.5 69t-239.5 181z" />
<glyph unicode="&#xb4;" horiz-adv-x="1024" d="M328 1219l217 335l225 -100l-250 -235h-192z" />
<glyph unicode="&#xb6;" horiz-adv-x="1140" d="M82 965v4q0 212 154 341q150 124 401 124h326v-1434h-254v500h-37q-262 0 -421 118q-169 125 -169 347z" />
<glyph unicode="&#xb7;" horiz-adv-x="550" d="M139 487v281h273v-281h-273z" />
<glyph unicode="&#xb8;" horiz-adv-x="1024" d="M268 -248l185 268h186l-154 -358z" />
<glyph unicode="&#xba;" horiz-adv-x="798" d="M90 1130v5q0 129 89 218q91 91 222 91q130 0 220 -90q88 -88 88 -217v-4q0 -130 -89 -219q-91 -91 -222 -91q-67 0 -123 24.5t-97 65.5q-88 88 -88 217zM104 578v118h590v-118h-590zM233 1133q0 -74 47 -128.5t122 -54.5t119 53.5t44 126.5v5q0 74 -47 128t-122 54 t-119 -53.5t-44 -126.5v-4z" />
<glyph unicode="&#xbb;" horiz-adv-x="1241" d="M109 178l270 361l-270 362l188 98l338 -450v-17l-338 -448zM623 178l270 361l-270 362l188 98l340 -450v-17l-340 -448z" />
<glyph unicode="&#xbf;" horiz-adv-x="1107" d="M86 397v4q0 265 251 369q75 31 161 45l20 166h166l41 -332l-10 -10q-379 -15 -379 -229v-4q0 -86 62.5 -140.5t172.5 -54.5q180 0 334 162l154 -164q-90 -102 -209 -164.5t-256.5 -62.5t-225 28.5t-150.5 82.5q-132 114 -132 304zM469 1153v281h274v-281h-274z" />
<glyph unicode="&#xc0;" horiz-adv-x="1617" d="M61 0l631 1444h234l630 -1444h-266l-145 346h-678l-148 -346h-258zM469 1788l225 100l217 -336h-192zM559 569h494l-248 574z" />
<glyph unicode="&#xc1;" horiz-adv-x="1617" d="M61 0l631 1444h234l630 -1444h-266l-145 346h-678l-148 -346h-258zM559 569h494l-248 574zM707 1552l217 336l225 -100l-250 -236h-192z" />
<glyph unicode="&#xc2;" horiz-adv-x="1617" d="M61 0l631 1444h234l630 -1444h-266l-145 346h-678l-148 -346h-258zM457 1550l237 299h230l237 -299h-196l-158 138l-158 -138h-192zM559 569h494l-248 574z" />
<glyph unicode="&#xc3;" horiz-adv-x="1617" d="M61 0l631 1444h234l630 -1444h-266l-145 346h-678l-148 -346h-258zM422 1573q35 125 85 190.5t144 65.5q57 0 129 -28.5t105 -41t69.5 -12.5t59 24.5t45.5 77.5l137 -43q-35 -123 -85 -188.5t-144 -65.5q-64 0 -132.5 28t-102.5 41t-69.5 13t-58 -24.5t-45.5 -77.5z M559 569h494l-248 574z" />
<glyph unicode="&#xc4;" horiz-adv-x="1617" d="M61 0l631 1444h234l630 -1444h-266l-145 346h-678l-148 -346h-258zM479 1552v242h252v-242h-252zM559 569h494l-248 574zM887 1552v242h252v-242h-252z" />
<glyph unicode="&#xc5;" horiz-adv-x="1617" d="M61 0l611 1401q-97 73 -97 178v4q0 89 71 158q67 65 163 65t163 -65q70 -68 70 -158v-4q0 -105 -96 -178l610 -1401h-266l-145 346h-678l-148 -346h-258zM559 569h494l-248 574zM682 1579q0 -51 37 -88t90 -37t90 37t37 88v4q0 51 -37 88t-90 37t-90 -37t-37 -88v-4z" />
<glyph unicode="&#xc6;" horiz-adv-x="2140" d="M25 0l800 1434h1190v-226h-766v-372h674v-226h-674v-385h776v-225h-1028v346h-522l-190 -346h-260zM596 569h401v645h-41z" />
<glyph unicode="&#xc7;" horiz-adv-x="1511" d="M121 713v4q0 311 207 523q212 218 532 218q266 0 452 -133q58 -41 109 -90l-161 -186q-86 80 -182.5 129t-209 49t-199.5 -40t-151 -109q-133 -144 -133 -357v-4q0 -214 133 -361q137 -149 340 -149q131 0 225.5 50t186.5 136l162 -164q-172 -179 -369 -228 q-76 -19 -168 -24l-135 -315l-215 90l162 238q-262 51 -423 248q-163 202 -163 475z" />
<glyph unicode="&#xc8;" d="M184 0v1434h1063v-226h-811v-372h719v-226h-719v-385h821v-225h-1073zM420 1788l225 100l217 -336h-192z" />
<glyph unicode="&#xc9;" d="M184 0v1434h1063v-226h-811v-372h719v-226h-719v-385h821v-225h-1073zM567 1552l217 336l226 -100l-250 -236h-193z" />
<glyph unicode="&#xca;" d="M184 0v1434h1063v-226h-811v-372h719v-226h-719v-385h821v-225h-1073zM358 1552l238 299h229l238 -299h-197l-157 138l-158 -138h-193z" />
<glyph unicode="&#xcb;" d="M184 0v1434h1063v-226h-811v-372h719v-226h-719v-385h821v-225h-1073zM381 1552v242h252v-242h-252zM788 1552v242h252v-242h-252z" />
<glyph unicode="&#xcc;" horiz-adv-x="649" d="M-12 1788l225 100l217 -336h-192zM199 0v1434h252v-1434h-252z" />
<glyph unicode="&#xcd;" horiz-adv-x="649" d="M199 0v1434h252v-1434h-252zM221 1552l217 336l226 -100l-250 -236h-193z" />
<glyph unicode="&#xce;" horiz-adv-x="649" d="M-27 1552l238 299h229l238 -299h-197l-157 138l-158 -138h-193zM199 0v1434h252v-1434h-252z" />
<glyph unicode="&#xcf;" horiz-adv-x="649" d="M-4 1552v242h252v-242h-252zM199 0v1434h252v-1434h-252zM403 1552v242h252v-242h-252z" />
<glyph unicode="&#xd0;" horiz-adv-x="1662" d="M92 608v226h154v600h534q334 0 550 -205q212 -200 212 -508v-4q0 -310 -212 -510q-101 -96 -241.5 -151.5t-308.5 -55.5h-534v608h-154zM496 229h284q225 0 361.5 136.5t136.5 347.5v4q0 212 -136 349q-139 138 -362 138h-284v-370h360v-226h-360v-379z" />
<glyph unicode="&#xd1;" horiz-adv-x="1617" d="M184 0v1434h234l768 -992v992h248v-1434h-211l-791 1020v-1020h-248zM422 1573q35 125 85 190.5t144 65.5q57 0 129 -28.5t105 -41t69.5 -12.5t59 24.5t45.5 77.5l137 -43q-35 -123 -85 -188.5t-144 -65.5q-64 0 -132.5 28t-102.5 41t-69.5 13t-58 -24.5t-45.5 -77.5z " />
<glyph unicode="&#xd2;" horiz-adv-x="1740" d="M121 713v4q0 309 211 521q100 101 237.5 160.5t302.5 59.5q166 0 303.5 -58.5t235.5 -158.5t153.5 -234.5t55.5 -285.5v-4q0 -307 -211 -521q-100 -102 -237.5 -161.5t-303.5 -59.5t-303 58.5t-235.5 159t-153.5 234.5t-55 286zM385 717q0 -215 137 -359 q141 -151 350 -151q211 0 348 149q136 146 136 357v4q0 215 -136 359q-142 151 -352 151t-348 -149q-135 -146 -135 -357v-4zM516 1788l225 100l217 -336h-192z" />
<glyph unicode="&#xd3;" horiz-adv-x="1740" d="M121 713v4q0 309 211 521q100 101 237.5 160.5t302.5 59.5q166 0 303.5 -58.5t235.5 -158.5t153.5 -234.5t55.5 -285.5v-4q0 -307 -211 -521q-100 -102 -237.5 -161.5t-303.5 -59.5t-303 58.5t-235.5 159t-153.5 234.5t-55 286zM385 717q0 -215 137 -359 q141 -151 350 -151q211 0 348 149q136 146 136 357v4q0 215 -136 359q-142 151 -352 151t-348 -149q-135 -146 -135 -357v-4zM782 1552l217 336l226 -100l-250 -236h-193z" />
<glyph unicode="&#xd4;" horiz-adv-x="1740" d="M121 713v4q0 309 211 521q100 101 237.5 160.5t302.5 59.5q166 0 303.5 -58.5t235.5 -158.5t153.5 -234.5t55.5 -285.5v-4q0 -307 -211 -521q-100 -102 -237.5 -161.5t-303.5 -59.5t-303 58.5t-235.5 159t-153.5 234.5t-55 286zM385 717q0 -215 137 -359 q141 -151 350 -151q211 0 348 149q136 146 136 357v4q0 215 -136 359q-142 151 -352 151t-348 -149q-135 -146 -135 -357v-4zM518 1552l238 299h229l238 -299h-197l-158 138l-157 -138h-193z" />
<glyph unicode="&#xd5;" horiz-adv-x="1740" d="M121 713v4q0 309 211 521q100 101 237.5 160.5t302.5 59.5q166 0 303.5 -58.5t235.5 -158.5t153.5 -234.5t55.5 -285.5v-4q0 -307 -211 -521q-100 -102 -237.5 -161.5t-303.5 -59.5t-303 58.5t-235.5 159t-153.5 234.5t-55 286zM385 717q0 -215 137 -359 q141 -151 350 -151q211 0 348 149q136 146 136 357v4q0 215 -136 359q-142 151 -352 151t-348 -149q-135 -146 -135 -357v-4zM483 1573q35 125 85 190.5t145 65.5q58 0 129 -28.5t104 -41t70 -12.5t59.5 24.5t44.5 77.5l137 -43q-35 -123 -85 -188.5t-144 -65.5 q-64 0 -132.5 28t-102 41t-69.5 13t-58.5 -24.5t-44.5 -77.5z" />
<glyph unicode="&#xd6;" horiz-adv-x="1740" d="M121 713v4q0 309 211 521q100 101 237.5 160.5t302.5 59.5q166 0 303.5 -58.5t235.5 -158.5t153.5 -234.5t55.5 -285.5v-4q0 -307 -211 -521q-100 -102 -237.5 -161.5t-303.5 -59.5t-303 58.5t-235.5 159t-153.5 234.5t-55 286zM385 717q0 -215 137 -359 q141 -151 350 -151q211 0 348 149q136 146 136 357v4q0 215 -136 359q-142 151 -352 151t-348 -149q-135 -146 -135 -357v-4zM541 1552v242h252v-242h-252zM948 1552v242h252v-242h-252z" />
<glyph unicode="&#xd8;" horiz-adv-x="1740" d="M104 -10l203 227q-186 203 -186 496v4q0 309 211 521q100 101 237.5 160.5t302.5 59.5q238 0 418 -123l99 109h247l-202 -230q186 -203 186 -493v-4q0 -307 -211 -521q-100 -102 -237.5 -161.5t-303.5 -59.5q-234 0 -417 123l-99 -108h-248zM381 717q0 -174 94 -305 l655 737q-111 82 -262 82q-212 0 -350 -149q-137 -148 -137 -361v-4zM610 285q111 -82 262 -82q213 0 352 149q136 148 136 361v4q0 174 -94 305z" />
<glyph unicode="&#xd9;" horiz-adv-x="1550" d="M162 608v826h252v-816q0 -201 96 -305t265 -104t265.5 100.5t96.5 298.5v826h252v-813q0 -311 -169 -483q-158 -161 -447 -161q-140 0 -252.5 40t-192.5 120q-166 166 -166 471zM449 1778l225 100l217 -336h-193z" />
<glyph unicode="&#xda;" horiz-adv-x="1550" d="M162 608v826h252v-816q0 -201 96 -305t265 -104t265.5 100.5t96.5 298.5v826h252v-813q0 -311 -169 -483q-158 -161 -447 -161q-140 0 -252.5 40t-192.5 120q-166 166 -166 471zM659 1542l218 336l225 -100l-250 -236h-193z" />
<glyph unicode="&#xdb;" horiz-adv-x="1550" d="M162 608v826h252v-816q0 -201 96 -305t265 -104t265.5 100.5t96.5 298.5v826h252v-813q0 -311 -169 -483q-158 -161 -447 -161q-140 0 -252.5 40t-192.5 120q-166 166 -166 471zM424 1550l238 299h229l237 -299h-196l-158 138l-158 -138h-192z" />
<glyph unicode="&#xdc;" horiz-adv-x="1550" d="M162 608v826h252v-816q0 -201 96 -305t265 -104t265.5 100.5t96.5 298.5v826h252v-813q0 -311 -169 -483q-158 -161 -447 -161q-140 0 -252.5 40t-192.5 120q-166 166 -166 471zM446 1550v242h252v-242h-252zM854 1550v242h252v-242h-252z" />
<glyph unicode="&#xdd;" horiz-adv-x="1466" d="M37 1434h297l401 -635l406 635h289l-570 -863v-571h-254v565zM637 1542l217 336l225 -100l-250 -236h-192z" />
<glyph unicode="&#xde;" horiz-adv-x="1378" d="M184 0v1434h252v-226h314q252 0 398 -130.5t146 -346.5v-4q0 -234 -168 -367q-154 -122 -405 -122h-285v-238h-252zM436 463h293q143 0 226 72.5t83 185.5v4q0 127 -84 191.5t-225 64.5h-293v-518z" />
<glyph unicode="&#xdf;" horiz-adv-x="1269" d="M156 0v1028q0 223 130 352q132 129 357 129q204 0 325 -111q115 -106 115 -274v-4q0 -187 -139 -294q-41 -31 -86 -56q215 -73 284 -230q27 -59 27 -134v-5q0 -198 -152 -306q-150 -107 -411 -99v190q150 4 233 60.5t83 161.5v4q0 100 -87 158.5t-229 74.5v168 q98 47 165 114.5t67 170.5v4q0 90 -56.5 143t-154.5 53t-162 -70.5t-64 -191.5v-1036h-245z" />
<glyph unicode="&#xe0;" horiz-adv-x="1202" d="M82 311v4q0 175 124 268q115 87 293 87t320 -45v20q0 232 -276 232q-139 0 -299 -68l-68 199q90 41 184.5 65.5t227.5 24.5q242 0 358.5 -120t116.5 -337v-641h-246v133q-130 -156 -350 -156q-163 0 -269 85q-116 92 -116 249zM276 1454l226 100l217 -335h-193zM328 324 q0 -78 60.5 -119t135 -41t126.5 16.5t91 45.5q82 63 82 165v62q-112 43 -238.5 43t-191.5 -45t-65 -123v-4z" />
<glyph unicode="&#xe1;" horiz-adv-x="1202" d="M82 311v4q0 175 124 268q115 87 293 87t320 -45v20q0 232 -276 232q-139 0 -299 -68l-68 199q90 41 184.5 65.5t227.5 24.5q242 0 358.5 -120t116.5 -337v-641h-246v133q-130 -156 -350 -156q-163 0 -269 85q-116 92 -116 249zM328 324q0 -78 60.5 -119t135 -41 t126.5 16.5t91 45.5q82 63 82 165v62q-112 43 -238.5 43t-191.5 -45t-65 -123v-4zM481 1219l217 335l226 -100l-250 -235h-193z" />
<glyph unicode="&#xe2;" horiz-adv-x="1202" d="M82 311v4q0 175 124 268q115 87 293 87t320 -45v20q0 232 -276 232q-139 0 -299 -68l-68 199q90 41 184.5 65.5t227.5 24.5q242 0 358.5 -120t116.5 -337v-641h-246v133q-130 -156 -350 -156q-163 0 -269 85q-116 92 -116 249zM248 1219l237 299h230l237 -299h-196 l-158 137l-158 -137h-192zM328 324q0 -78 60.5 -119t135 -41t126.5 16.5t91 45.5q82 63 82 165v62q-112 43 -238.5 43t-191.5 -45t-65 -123v-4z" />
<glyph unicode="&#xe3;" horiz-adv-x="1202" d="M82 311v4q0 175 124 268q115 87 293 87t320 -45v20q0 232 -276 232q-139 0 -299 -68l-68 199q90 41 184.5 65.5t227.5 24.5q242 0 358.5 -120t116.5 -337v-641h-246v133q-130 -156 -350 -156q-163 0 -269 85q-116 92 -116 249zM215 1239q35 125 85 190.5t144 65.5 q57 0 129 -28.5t105 -41t69.5 -12.5t59 24.5t45.5 78.5l137 -43q-35 -123 -85 -188.5t-144 -65.5q-66 0 -133.5 27.5t-101 40.5t-69.5 13t-58.5 -24.5t-45.5 -77.5zM328 324q0 -78 60.5 -119t135 -41t126.5 16.5t91 45.5q82 63 82 165v62q-112 43 -238.5 43t-191.5 -45 t-65 -123v-4z" />
<glyph unicode="&#xe4;" horiz-adv-x="1202" d="M82 311v4q0 175 124 268q115 87 293 87t320 -45v20q0 232 -276 232q-139 0 -299 -68l-68 199q90 41 184.5 65.5t227.5 24.5q242 0 358.5 -120t116.5 -337v-641h-246v133q-130 -156 -350 -156q-163 0 -269 85q-116 92 -116 249zM270 1219v241h252v-241h-252zM328 324 q0 -78 60.5 -119t135 -41t126.5 16.5t91 45.5q82 63 82 165v62q-112 43 -238.5 43t-191.5 -45t-65 -123v-4zM678 1219v241h252v-241h-252z" />
<glyph unicode="&#xe5;" horiz-adv-x="1202" d="M82 311v4q0 175 124 268q115 87 293 87t320 -45v20q0 232 -276 232q-139 0 -299 -68l-68 199q90 41 184.5 65.5t227.5 24.5q242 0 358.5 -120t116.5 -337v-641h-246v133q-130 -156 -350 -156q-163 0 -269 85q-116 92 -116 249zM328 324q0 -78 60.5 -119t135 -41 t126.5 16.5t91 45.5q82 63 82 165v62q-112 43 -238.5 43t-191.5 -45t-65 -123v-4zM367 1438v4q0 89 71 158q67 65 162 65q94 0 163 -65q71 -68 71 -158v-4q0 -89 -71 -158q-68 -66 -164 -66q-46 0 -88 17.5t-73 48.5q-71 69 -71 158zM473 1438q0 -51 37 -88t90 -37t90 36.5 t37 88.5v4q0 51 -37 88t-90 37t-90 -37t-37 -88v-4z" />
<glyph unicode="&#xe6;" horiz-adv-x="1949" d="M82 311v4q0 175 124 268q115 87 290 87t317 -45v20q0 231 -264 232q-145 0 -305 -68l-68 199q90 41 184.5 65.5t225.5 24.5t229 -46t148 -132q141 184 378 184q242 0 383 -174q129 -161 129 -408v-34q0 -17 -2 -35h-794q23 -133 106.5 -204t189 -71t174 33t134.5 96 l145 -129q-172 -203 -444 -203q-127 0 -235.5 49.5t-182.5 135.5q-222 -183 -452 -183q-177 0 -290 85q-120 91 -120 249zM328 324q0 -78 59 -119t147 -41q164 0 318 139q-32 80 -39 156q-109 37 -233 37t-188 -45t-64 -123v-4zM1053 616h557q-20 194 -165 262 q-48 23 -110 23q-117 0 -191.5 -79t-90.5 -206z" />
<glyph unicode="&#xe7;" horiz-adv-x="1169" d="M96 535v4q0 235 159 398q163 167 402 167q154 0 255.5 -51.5t177.5 -134.5l-154 -166q-57 59 -121.5 97t-146 38t-138.5 -28t-98 -74q-88 -99 -88 -242v-4q0 -148 90 -246q94 -103 234 -103q88 0 154.5 38t125.5 98l150 -148q-76 -82 -168 -137t-232 -64l-133 -315 l-217 90l164 242q-186 46 -300 196q-116 151 -116 345z" />
<glyph unicode="&#xe8;" horiz-adv-x="1236" d="M96 537v4q0 236 148 398q152 165 381 165q247 0 387 -174q131 -162 131 -408q0 -33 -4 -69h-795q20 -133 105.5 -204t191.5 -71t174 33t133 96l146 -129q-172 -203 -443 -203q-236 0 -394 156q-161 159 -161 406zM285 1454l225 100l217 -335h-192zM342 616h555 q-20 194 -165 262q-48 23 -109 23q-115 0 -190 -79t-91 -206z" />
<glyph unicode="&#xe9;" horiz-adv-x="1236" d="M96 537v4q0 236 148 398q152 165 381 165q247 0 387 -174q131 -162 131 -408q0 -33 -4 -69h-795q20 -133 105.5 -204t191.5 -71t174 33t133 96l146 -129q-172 -203 -443 -203q-236 0 -394 156q-161 159 -161 406zM342 616h555q-20 194 -165 262q-48 23 -109 23 q-115 0 -190 -79t-91 -206zM510 1219l217 335l225 -100l-250 -235h-192z" />
<glyph unicode="&#xea;" horiz-adv-x="1236" d="M96 537v4q0 236 148 398q152 165 381 165q247 0 387 -174q131 -162 131 -408q0 -33 -4 -69h-795q20 -133 105.5 -204t191.5 -71t174 33t133 96l146 -129q-172 -203 -443 -203q-236 0 -394 156q-161 159 -161 406zM268 1219l238 299h229l238 -299h-197l-158 137l-157 -137 h-193zM342 616h555q-20 194 -165 262q-48 23 -109 23q-115 0 -190 -79t-91 -206z" />
<glyph unicode="&#xeb;" horiz-adv-x="1236" d="M96 537v4q0 236 148 398q152 165 381 165q247 0 387 -174q131 -162 131 -408q0 -33 -4 -69h-795q20 -133 105.5 -204t191.5 -71t174 33t133 96l146 -129q-172 -203 -443 -203q-236 0 -394 156q-161 159 -161 406zM291 1219v241h252v-241h-252zM342 616h555 q-20 194 -165 262q-48 23 -109 23q-115 0 -190 -79t-91 -206zM698 1219v241h252v-241h-252z" />
<glyph unicode="&#xec;" horiz-adv-x="585" d="M-43 1454l225 100l217 -335h-192zM170 0v1081h248v-1081h-248z" />
<glyph unicode="&#xed;" horiz-adv-x="585" d="M170 0v1081h248v-1081h-248zM186 1219l217 335l226 -100l-250 -235h-193z" />
<glyph unicode="&#xee;" horiz-adv-x="585" d="M-59 1219l237 299h230l237 -299h-196l-158 137l-158 -137h-192zM170 0v1081h248v-1081h-248z" />
<glyph unicode="&#xef;" horiz-adv-x="585" d="M-37 1219v241h252v-241h-252zM170 0v1081h248v-1081h-248zM371 1219v241h252v-241h-252z" />
<glyph unicode="&#xf0;" horiz-adv-x="1314" d="M96 508v4q0 210 138 350q131 133 337 133q152 0 285 -84l-215 293l-244 -108l-98 129l248 108l-119 162h285l49 -72l203 88l96 -129l-209 -90l182 -264q92 -129 136 -244.5t44 -253.5v-4q0 -232 -150 -386q-73 -74 -178.5 -119.5t-231.5 -45.5t-227 42t-175 114 q-156 152 -156 377zM340 502q0 -130 89 -221q93 -95 229 -95q71 0 128.5 25t98.5 68q86 90 86 223v4q0 130 -89 217q-92 90 -233 90q-137 0 -225 -88q-84 -84 -84 -219v-4z" />
<glyph unicode="&#xf1;" horiz-adv-x="1269" d="M156 0v1081h247v-168q132 191 327 191t295.5 -112.5t100.5 -303.5v-688h-247v614q0 127 -60.5 196t-170.5 69t-177.5 -71t-67.5 -198v-610h-247zM256 1239q35 125 85 190.5t144 65.5q55 0 129 -28.5t107 -41t69.5 -12.5t59 24.5t45.5 78.5l137 -43q-35 -123 -85 -188.5 t-144 -65.5q-66 0 -133.5 27.5t-101 40.5t-70.5 13t-59.5 -24.5t-45.5 -77.5z" />
<glyph unicode="&#xf2;" horiz-adv-x="1345" d="M96 535v4q0 233 165 398q167 167 413 167q249 0 412 -165q163 -164 163 -396v-4q0 -232 -165 -397q-76 -76 -182.5 -121.5t-230.5 -45.5t-229.5 44t-182.5 120q-163 161 -163 396zM326 1454l225 100l217 -335h-193zM344 539q0 -144 93 -245q95 -104 239 -104q74 0 134 28 t103 75q88 96 88 242v4q0 146 -93 245q-96 103 -238 103q-143 0 -238 -102q-88 -94 -88 -242v-4z" />
<glyph unicode="&#xf3;" horiz-adv-x="1345" d="M96 535v4q0 233 165 398q167 167 413 167q249 0 412 -165q163 -164 163 -396v-4q0 -232 -165 -397q-76 -76 -182.5 -121.5t-230.5 -45.5t-229.5 44t-182.5 120q-163 161 -163 396zM344 539q0 -144 93 -245q95 -104 239 -104q74 0 134 28t103 75q88 96 88 242v4 q0 146 -93 245q-96 103 -238 103q-143 0 -238 -102q-88 -94 -88 -242v-4zM575 1219l218 335l225 -100l-250 -235h-193z" />
<glyph unicode="&#xf4;" horiz-adv-x="1345" d="M96 535v4q0 233 165 398q167 167 413 167q249 0 412 -165q163 -164 163 -396v-4q0 -232 -165 -397q-76 -76 -182.5 -121.5t-230.5 -45.5t-229.5 44t-182.5 120q-163 161 -163 396zM319 1219l238 299h229l238 -299h-197l-157 137l-158 -137h-193zM344 539q0 -144 93 -245 q95 -104 239 -104q74 0 134 28t103 75q88 96 88 242v4q0 146 -93 245q-96 103 -238 103q-143 0 -238 -102q-88 -94 -88 -242v-4z" />
<glyph unicode="&#xf5;" horiz-adv-x="1345" d="M96 535v4q0 233 165 398q167 167 413 167q249 0 412 -165q163 -164 163 -396v-4q0 -232 -165 -397q-76 -76 -182.5 -121.5t-230.5 -45.5t-229.5 44t-182.5 120q-163 161 -163 396zM285 1239q35 125 85 190.5t144 65.5q57 0 129 -28.5t104.5 -41t69.5 -12.5t59.5 24.5 t45.5 78.5l137 -43q-35 -123 -85 -188.5t-145 -65.5q-65 0 -132.5 27.5t-101.5 40.5t-69.5 13t-58.5 -24.5t-45 -77.5zM344 539q0 -144 93 -245q95 -104 239 -104q74 0 134 28t103 75q88 96 88 242v4q0 146 -93 245q-96 103 -238 103q-143 0 -238 -102q-88 -94 -88 -242v-4z " />
<glyph unicode="&#xf6;" horiz-adv-x="1345" d="M96 535v4q0 233 165 398q167 167 413 167q249 0 412 -165q163 -164 163 -396v-4q0 -232 -165 -397q-76 -76 -182.5 -121.5t-230.5 -45.5t-229.5 44t-182.5 120q-163 161 -163 396zM342 1219v241h252v-241h-252zM344 539q0 -144 93 -245q95 -104 239 -104q74 0 134 28 t103 75q88 96 88 242v4q0 146 -93 245q-96 103 -238 103q-143 0 -238 -102q-88 -94 -88 -242v-4zM750 1219v241h251v-241h-251z" />
<glyph unicode="&#xf8;" horiz-adv-x="1345" d="M66 -10l163 182q-133 156 -133 363v4q0 233 165 398q167 167 413 167q169 0 309 -88l72 78h225l-166 -187q135 -147 135 -364v-4q0 -232 -165 -397q-167 -167 -414 -167q-165 0 -310 88l-69 -73h-225zM338 539q0 -102 51 -187l447 492q-75 49 -158.5 49t-145 -27.5 t-104.5 -75.5q-90 -102 -90 -247v-4zM508 233q72 -47 157 -47t147 28t106 76q90 100 90 245v4q0 95 -52 188z" />
<glyph unicode="&#xf9;" horiz-adv-x="1269" d="M143 393v688h248v-614q0 -127 60.5 -195.5t170.5 -68.5t177 70.5t67 197.5v610h248v-1081h-248v168q-53 -78 -133 -134.5t-205 -56.5q-184 0 -284.5 113t-100.5 303zM313 1452l226 100l217 -335h-193z" />
<glyph unicode="&#xfa;" horiz-adv-x="1269" d="M143 393v688h248v-614q0 -127 60.5 -195.5t170.5 -68.5t177 70.5t67 197.5v610h248v-1081h-248v168q-53 -78 -133 -134.5t-205 -56.5q-184 0 -284.5 113t-100.5 303zM510 1217l217 335l225 -100l-250 -235h-192z" />
<glyph unicode="&#xfb;" horiz-adv-x="1269" d="M143 393v688h248v-614q0 -127 60.5 -195.5t170.5 -68.5t177 70.5t67 197.5v610h248v-1081h-248v168q-53 -78 -133 -134.5t-205 -56.5q-184 0 -284.5 113t-100.5 303zM283 1219l237 299h230l237 -299h-196l-158 137l-158 -137h-192z" />
<glyph unicode="&#xfc;" horiz-adv-x="1269" d="M143 393v688h248v-614q0 -127 60.5 -195.5t170.5 -68.5t177 70.5t67 197.5v610h248v-1081h-248v168q-53 -78 -133 -134.5t-205 -56.5q-184 0 -284.5 113t-100.5 303zM305 1219v241h252v-241h-252zM713 1219v241h252v-241h-252z" />
<glyph unicode="&#xfd;" horiz-adv-x="1220" d="M53 1081h264l308 -802l280 802h258l-430 -1112q-66 -168 -145 -234q-82 -69 -211 -69q-135 0 -256 66l84 184q80 -41 139 -41t94 26.5t66 98.5zM500 1217l217 335l225 -100l-250 -235h-192z" />
<glyph unicode="&#xfe;" d="M156 -328v1823h247v-594q139 203 367 203q204 0 348 -146q156 -158 156 -415v-4q0 -258 -154 -416q-143 -146 -350 -146q-133 0 -221 57.5t-146 133.5v-496h-247zM397 539q0 -153 95 -252q90 -94 221 -94q129 0 218 93q91 95 91 253v4q0 155 -91 252q-88 94 -218 94 q-132 0 -221 -95q-95 -102 -95 -251v-4z" />
<glyph unicode="&#xff;" horiz-adv-x="1220" d="M53 1081h264l308 -802l280 802h258l-430 -1112q-66 -168 -145 -234q-82 -69 -211 -69q-135 0 -256 66l84 184q80 -41 139 -41t94 26.5t66 98.5zM281 1219v241h251v-241h-251zM688 1219v241h252v-241h-252z" />
<glyph unicode="&#x152;" horiz-adv-x="2248" d="M121 713v4q0 308 211 509q219 208 551 208h1241v-226h-766v-372h674v-226h-674v-385h776v-225h-1251q-334 0 -551 205q-211 200 -211 508zM385 717q0 -213 137 -349q138 -139 361 -139h223v975h-223q-226 0 -361 -136q-137 -136 -137 -347v-4z" />
<glyph unicode="&#x153;" horiz-adv-x="2129" d="M96 535v4q0 233 165 398q167 167 407 167q139 0 250.5 -61.5t181.5 -161.5q68 102 175 162.5t239.5 60.5t228.5 -47t161 -127q130 -162 130 -408q0 -33 -4 -69h-795q23 -133 107.5 -204t190 -71t174.5 33t134 96l146 -129q-172 -203 -443 -203q-141 0 -258 60.5 t-188 167.5q-72 -104 -186 -166t-243 -62t-231 44t-178 120t-120 178.5t-44 217.5zM344 539q0 -145 90 -245q93 -104 235 -104q73 0 131 28t100 75q87 97 87 242v4q0 144 -92 245q-94 103 -231 103q-141 0 -233 -103q-87 -97 -87 -241v-4zM1233 616h557q-13 123 -83 202 q-74 83 -191 83t-192 -79t-91 -206z" />
<glyph unicode="&#x178;" horiz-adv-x="1466" d="M37 1434h297l401 -635l406 635h289l-570 -863v-571h-254v565zM403 1550v242h252v-242h-252zM811 1550v242h252v-242h-252z" />
<glyph unicode="&#x2c6;" horiz-adv-x="1024" d="M160 1219l237 299h230l237 -299h-196l-158 137l-158 -137h-192z" />
<glyph unicode="&#x2dc;" horiz-adv-x="1024" d="M125 1239q35 125 85 190.5t144 65.5q57 0 129 -28.5t105 -41t69.5 -12.5t59 24.5t45.5 78.5l137 -43q-35 -123 -85 -188.5t-144 -65.5q-66 0 -133.5 27.5t-101.5 40.5t-69.5 13t-58 -24.5t-45.5 -77.5z" />
<glyph unicode="&#x2000;" horiz-adv-x="944" />
<glyph unicode="&#x2001;" horiz-adv-x="1888" />
<glyph unicode="&#x2002;" horiz-adv-x="944" />
<glyph unicode="&#x2003;" horiz-adv-x="1888" />
<glyph unicode="&#x2004;" horiz-adv-x="629" />
<glyph unicode="&#x2005;" horiz-adv-x="472" />
<glyph unicode="&#x2006;" horiz-adv-x="314" />
<glyph unicode="&#x2007;" horiz-adv-x="314" />
<glyph unicode="&#x2008;" horiz-adv-x="236" />
<glyph unicode="&#x2009;" horiz-adv-x="377" />
<glyph unicode="&#x200a;" horiz-adv-x="104" />
<glyph unicode="&#x2010;" horiz-adv-x="835" d="M115 506v244h606v-244h-606z" />
<glyph unicode="&#x2011;" horiz-adv-x="835" d="M115 506v244h606v-244h-606z" />
<glyph unicode="&#x2012;" horiz-adv-x="835" d="M115 506v244h606v-244h-606z" />
<glyph unicode="&#x2013;" horiz-adv-x="1081" d="M115 510v235h852v-235h-852z" />
<glyph unicode="&#x2014;" horiz-adv-x="1839" d="M115 510v235h1609v-235h-1609z" />
<glyph unicode="&#x2018;" horiz-adv-x="550" d="M129 864v240q0 172 80 250t235 90l27 -107q-188 -35 -174 -190h104v-283h-272z" />
<glyph unicode="&#x2019;" horiz-adv-x="550" d="M80 961q188 35 174 192h-104v281h272v-240q0 -172 -80 -250t-236 -90z" />
<glyph unicode="&#x201a;" horiz-adv-x="550" d="M70 -193q188 37 174 193h-105v281h273v-238q0 -172 -80 -250t-236 -90z" />
<glyph unicode="&#x201c;" horiz-adv-x="1026" d="M129 864v240q0 172 80 250t235 90l27 -107q-188 -35 -174 -190h104v-283h-272zM604 864v240q0 172 80 250t236 90l26 -107q-188 -35 -176 -190h107v-283h-273z" />
<glyph unicode="&#x201d;" horiz-adv-x="1026" d="M80 961q188 35 174 192h-104v281h272v-240q0 -172 -80 -250t-236 -90zM555 961q188 35 174 192h-104v281h272v-240q0 -172 -80 -250t-235 -90z" />
<glyph unicode="&#x201e;" horiz-adv-x="1026" d="M70 -193q188 37 174 193h-105v281h273v-238q0 -172 -80 -250t-236 -90zM545 -193q188 37 174 193h-105v281h273v-238q0 -172 -80 -250t-236 -90z" />
<glyph unicode="&#x2022;" horiz-adv-x="1005" d="M213 719v4q0 117 86 203q84 84 203 84q118 0 204 -84q87 -86 87 -203v-4q0 -120 -85 -203q-86 -84 -206 -84q-118 0 -204 84q-85 83 -85 203z" />
<glyph unicode="&#x2026;" horiz-adv-x="1622" d="M139 0v274h267v-274h-267zM678 0v274h266v-274h-266zM1217 0v274h266v-274h-266z" />
<glyph unicode="&#x202f;" horiz-adv-x="377" />
<glyph unicode="&#x2039;" horiz-adv-x="724" d="M90 532v17l340 450l188 -96l-270 -360l270 -363l-188 -96z" />
<glyph unicode="&#x203a;" horiz-adv-x="724" d="M109 178l270 361l-270 362l188 98l338 -450v-17l-338 -448z" />
<glyph unicode="&#x205f;" horiz-adv-x="472" />
<glyph unicode="&#x2122;" horiz-adv-x="1413" d="M53 1323v111h510v-111h-194v-520h-121v520h-195zM698 803v631h129l191 -299l190 299h125v-631h-116v448l-195 -303h-12l-195 303v-448h-117z" />
<glyph unicode="&#xe000;" horiz-adv-x="1085" d="M0 0v1085h1085v-1085h-1085z" />
</font>
</defs>
</svg>
